#TITLE:Love Produced;
#SUBTITLE:;
#ARTIST:N.R.G;
#TITLETRANSLIT:Love Produced;
#SUBTITLETRANSLIT:;
#ARTISTTRANSLIT:N.R.G;
#CREDIT:;
#BANNER:Love Produced-bn.png;
#BACKGROUND:Love Produced-bg.png;
#LYRICSPATH:;
#CDTITLE:pm4cd.png;
#MUSIC:Love Produced.mp3;
#OFFSET:0.100;
#SAMPLESTART:31.610;
#SAMPLELENGTH:20.000;
#SELECTABLE:YES;
#BPMS:0.000=146.870,250.250=587.480,251.250=146.870,450.750=587.480,452.250=146.870,551.750=148.110,551.750=587.480,553.250=148.130,553.250=146.870;
#STOPS:;
#BGCHANGES:;
// cache tags:
#FIRSTBEAT:14.250;
#LASTBEAT:621.250;
#SONGFILENAME:Songs/Music V.I.P ^_^/Love Produced/Love Produced.sm;
#HASMUSIC:1;
#HASBANNER:1;
#MUSICLENGTH:256.548;
// end cache tags

//---------------dance-single - ----------------
#NOTES:
     dance-single:
     :
     Easy:
     1:
     0.000,0.000,0.000,0.000,0.000,0.000,0.000,0.000,0.000,0.000:
0000
0000
0000
0000
;

//---------------dance-single - Copied from----------------
#NOTES:
     dance-single:
     Copied from:
     Medium:
     1:
     0.000,0.000,0.000,0.000,0.000,0.000,0.000,0.000,0.000,0.000:
0000
0000
0000
0000
;

//---------------dance-single - ----------------
#NOTES:
     dance-single:
     :
     Hard:
     19:
     1.000,1.000,1.000,0.070,1.000,2043.000,508.000,18.000,0.000,73.000:
0000
0000
0000
0000
,
0000
0000
0000
0000
,
0000
0000
0000
0000
,
0000
0000
0000
0000
0000
0000
0000
0000
0000
1001
0000
0100
0000
1010
0000
1000
,
0010
0101
0000
0001
0000
1100
0000
0010
0000
0101
0000
0100
0000
1100
0000
0001
,
1000
0110
0000
1000
0000
1010
0000
0100
0000
0011
0000
0001
0000
0101
0000
0010
,
0001
1100
0000
0100
0000
0101
0000
0100
0000
1001
0000
0010
0000
1100
0000
0010
,
0000
1010
0000
0010
0000
0101
1000
0100
0010
0001
1110
0000
1001
0000
0101
0000
,
0110
0001
1100
0000
1001
0000
1010
0000
0101
0000
0011
0000
1100
0000
0110
0000
,
0011
0100
1001
0000
1010
0000
0101
0000
0110
0000
1001
0000
0011
0000
1100
0000
,
0110
1000
0011
0000
1100
0000
1001
0000
0101
0000
0011
0100
0010
0001
1010
0100
,
0010
0001
1010
0100
0010
0001
1010
0100
0010
0001
1110
0001
0100
0001
0110
1000
,
0010
0100
1000
0100
0001
0010
0100
0010
0001
1000
0100
0010
0100
0001
1010
0001
,
0100
0010
0100
1000
0001
0010
0100
1000
0010
0100
0001
1000
0100
0001
0110
1000
,
0010
0001
1000
0100
0010
0100
0010
0001
1000
0010
0100
1000
0100
0001
1010
0100
,
0010
0100
0001
1000
0100
1000
0001
0010
0100
0010
0100
1000
0100
0001
0110
0001
,
0010
0001
0100
0010
1000
0100
0001
0100
0010
1000
0010
0100
0010
0001
1010
0100
,
0010
0001
0010
0100
0010
0100
1000
0100
0010
0100
0001
0010
0100
0001
0110
1000
,
0010
0100
0010
1000
0100
0010
0100
0001
0010
1000
0100
1011
0000
0000
0000
0000
,
0000
1011
0000
0000
0000
0000
0000
0100
0000
0010
0000
1101
0010
0001
0010
1100
,
0001
0010
0100
1001
0100
0010
0001
0110
1000
0001
0100
1010
0100
0001
1000
0101
,
0010
0001
0010
1100
0010
0100
0010
1001
0100
0010
1000
0011
0100
0010
0001
0110
,
0001
0010
0001
1100
0010
0100
0010
1001
0100
1000
0010
0101
0010
1000
0100
0011
,
0100
0010
1000
0101
0010
0001
0010
1100
0010
0100
0010
1001
0100
0010
1000
0101
,
0010
0100
1000
0011
0100
0010
0100
1001
0010
0001
0010
0101
1000
0100
0010
1100
,
0001
0010
0100
1001
0010
0100
0010
0101
1000
0100
0010
1100
0010
0001
0010
1001
,
0100
0010
0001
1100
0010
0001
1000
0110
0001
1000
0010
1001
0100
0001
1000
0110
,
0001
0010
0001
1100
0010
0100
0001
1010
0100
1000
0010
1101
0010
0100
0001
1010
,
0001
1000
0100
0011
0100
1000
0010
1001
0100
0010
1000
0011
0100
1000
0001
0110
,
1000
0100
0001
1100
0001
0100
1000
0101
0010
0001
0100
1010
0001
0010
1000
0110
,
1000
0010
0100
1001
0100
0010
0100
1010
0001
0010
0100
0011
0100
0010
0001
1010
,
0100
0010
0001
0110
1000
0001
1000
0101
0010
0100
1000
0111
1000
0010
1000
0110
,
0001
0010
0100
1001
0010
0100
0010
1100
0010
1000
0100
0011
0100
1000
0001
1010
,
0100
0010
0100
1001
0010
0001
0100
0011
1000
0100
0010
1001
0010
0100
0010
1100
,
0001
0010
1000
0101
0010
1000
0001
0110
1000
0100
0010
1100
0010
0001
0010
1100
,
0010
0001
0010
1100
0010
0001
0010
1100
0010
0001
0010
1101
0010
0100
1000
0101
,
0000
0001
0010
0100
1000
0100
0010
1001
0000
0100
1000
0100
0010
0100
0010
0001
,
0000
0001
0010
0100
1000
0100
0010
0001
0010
0100
1000
0110
0000
0001
0010
1100
,
0000
0001
0010
0100
0000
0001
0010
1100
0000
0001
0010
0100
0000
1000
0100
0011
,
0000
1000
0100
0010
0000
1000
0100
0011
0000
1000
0100
0010
0000
1000
0010
0101
,
0000
1000
0010
0100
0000
1000
0010
0101
0000
1000
0010
0100
0000
0001
0100
1010
,
0000
0001
0100
1000
0000
0001
0100
1010
0000
0001
0100
1000
0000
0100
0010
1001
,
0000
0100
0010
0001
0000
0100
0010
1001
0000
0100
0010
0001
0000
1000
0001
0110
,
0000
1000
0001
0010
0000
1000
0001
0110
0000
1000
0001
0010
0000
1000
0100
1010
,
0000
1000
0100
0010
0000
1000
0100
1010
0000
1000
0100
0010
0000
0001
0100
1001
,
0000
0001
0100
1000
0000
0001
0100
1001
0000
0001
0100
1011
0000
0100
0010
0101
,
0000
0100
0010
0001
0000
0100
0010
0101
0000
0100
0010
0001
0000
1000
0100
1001
,
0000
1000
0100
0001
0000
1000
0100
1001
0000
1000
0100
0001
0000
0010
0100
1010
,
0000
0010
0100
1000
0000
0010
0100
1010
0000
0010
0100
1000
0000
0100
0001
0110
,
0000
0100
0001
0010
0000
0100
0001
0110
0000
0100
0001
0010
0000
0001
0010
1001
,
0000
0001
0010
1000
0000
0001
0010
1001
0000
0001
0010
1000
0000
0010
0100
0011
,
0000
0010
0100
0001
0000
0010
0100
0011
0000
0010
0100
0001
0000
1000
0010
1001
,
0000
1000
0010
0001
0000
1000
0010
1001
0000
0100
0000
0010
0001
0010
0100
1000
,
0100
0010
0001
0010
0100
0010
0100
1000
0100
0010
0001
1110
0000
0001
1000
0101
,
0000
0001
1000
0100
0000
0001
1000
0101
0000
0001
1000
0100
0000
0010
0001
0110
,
0000
0010
0001
0100
0000
0010
0001
0110
0000
0010
0001
0100
0000
1000
0010
0101
,
0000
1000
0010
0001
0000
1000
0010
0101
0000
1000
0010
0001
0000
1000
0100
0011
,
0000
1000
0100
0001
0000
1000
0100
0011
0000
1000
0100
0001
0000
0010
1000
0110
,
0000
0010
1000
0100
0000
0010
1000
0110
0000
0010
1000
0100
0000
0001
0010
1100
,
0000
0001
0010
1000
0000
0001
0010
1100
0000
0001
0010
1000
0000
0100
0010
1001
,
0000
0100
0010
0001
0000
0100
0010
1001
0000
0100
0010
1101
0010
0100
0010
1101
,
0010
0001
0010
1101
0010
0100
0010
0001
0010
1101
0010
1101
0000
0000
0000
0020
,
0000
0000
0000
0000
0000
0000
0000
0030
0000
0000
0000
0000
0000
1001
0010
0100
,
1000
0101
0010
0001
0100
0011
1000
0100
0010
1001
0010
0100
0001
1010
0100
0010
,
0001
0110
1000
0100
0010
1100
0001
0010
1000
0101
0010
0100
1000
0011
0100
0010
,
1000
0101
0010
0100
1000
0011
0100
0010
0100
1010
0100
0001
0010
1100
0001
0010
,
0100
1001
0100
0010
0001
0110
1000
0100
1000
0101
0010
0001
0010
1100
0001
0010
,
0100
1001
0010
0001
0100
1010
0100
0010
0001
1100
0010
0100
0010
0101
1000
0100
,
0010
1001
0100
1000
0001
0110
1000
0001
0010
1100
0001
0010
0100
1001
0100
1000
,
0010
1100
0010
0100
0001
1010
0100
0010
0001
1100
0001
0010
1000
0101
0010
0001
,
1000
0011
0100
0010
0001
0110
1000
0001
1000
0101
0010
1000
0010
1101
0010
0100
,
0010
0101
1000
0100
0010
1100
0001
0010
0100
1001
0010
1000
0100
1010
0100
0010
,
0001
1100
0010
0001
1000
0101
0010
0001
0010
1100
0010
0100
1000
0101
0010
0001
,
0100
1001
0010
0001
0100
1010
0100
0010
1000
0110
0001
0010
0100
1001
0010
0100
,
0001
0110
1000
0100
0001
1010
0100
1000
0010
1001
0010
0001
0100
1011
0100
1000
,
0010
1100
0001
1000
0010
0101
0010
1000
0100
0011
0100
1000
0010
0101
0010
0001
,
1000
0110
0001
1000
0100
1001
0010
0001
0100
1010
0100
0010
0100
1001
0010
0100
,
0010
1100
0001
0010
0001
1010
0100
1000
0100
0011
0100
0010
0001
1010
0001
0010
,
0001
1010
0001
0010
0001
1010
0001
0010
0001
1010
0001
0010
0001
1010
0001
0100
,
1000
0000
0000
0100
0000
0000
0010
0000
0000
0001
0000
0010
0000
0100
0000
1000
0000
0100
0000
0010
0000
0001
0000
0010
0000
0100
0000
1000
0000
0100
0000
0010
0000
0100
0000
0010
0000
0001
0000
1101
0000
0000
0000
0000
0000
0100
0000
0000
,
0010
1100
0000
0001
1000
0110
0000
1000
0100
1010
0000
0100
1000
0011
0000
1000
,
0010
1001
0000
0010
0001
1100
0000
0001
1000
0110
0000
1000
0100
0011
0000
1000
,
0010
0101
0000
0001
0010
1100
0000
0010
1000
0101
0000
0001
0010
1001
0000
1000
,
0010
1100
0000
0001
0010
0101
0000
0001
0010
1100
0000
0100
0010
1101
0000
0000
,
1101
0000
0000
0001
0010
1100
0000
0010
0001
1010
0000
0100
1000
0110
0000
0001
,
0100
0011
0000
1000
0010
0101
0000
0010
0100
1001
0000
0100
1000
0111
0000
0000
,
1110
0000
0000
0010
0100
1001
0000
0001
0100
0011
0000
0001
0010
1100
0000
0000
,
0000
0110
0000
0000
0000
1001
0010
0101
1000
0110
1000
0011
0100
1011
0000
1000
,
0100
0011
0100
1000
0100
0011
0100
1000
0100
0011
0100
1000
0100
1001
0010
0100
,
0010
1001
0010
0100
0010
1001
0010
0100
0010
1001
0100
0010
0001
1010
0100
0010
,
0001
1010
0100
0010
0001
1010
0100
0010
0001
1010
0100
0010
0100
0011
0100
0010
,
0100
0011
0100
0010
0100
0011
0100
0010
0100
0011
0100
1000
0100
1011
0100
1000
,
0100
1001
0100
1000
0100
1001
0100
1000
0100
1001
0010
0001
0010
0101
0010
0001
,
0010
0101
0010
0001
0010
0101
0010
0001
0010
0101
0010
0001
0010
1100
0010
0001
,
0010
1100
0010
0001
0010
1100
0010
0001
0010
1100
0010
0100
1000
0101
0010
0001
,
0010
0100
1000
0100
0010
0100
0010
0001
0010
0100
1000
0100
0010
1101
0000
0001
,
1000
0101
0000
0001
1000
0001
0000
0001
1000
0101
0000
0001
1000
0001
0000
1000
,
0100
1010
0000
1000
0100
1000
0000
1000
0100
1010
0000
1000
0100
1000
0000
0001
,
0100
0011
0000
0001
0100
0001
0000
0001
0100
0011
0000
0001
0100
0001
0000
0010
,
0100
1010
0000
0010
0100
0010
0000
0010
0100
1010
0000
0010
0100
0010
0000
1000
,
0001
1010
0000
1000
0001
1000
0000
1000
0001
1010
0000
1000
0001
1000
0000
1000
,
0100
1001
0000
1000
0100
1000
0000
1000
0100
1001
0000
1000
0100
1000
0000
0010
,
0100
0011
0000
0010
0100
0010
0000
0010
0100
0011
0000
0100
0000
0010
0100
1000
,
0100
0011
0100
0010
0001
0010
0100
1000
0100
0011
0100
1010
0001
1110
0000
1000
,
0100
0011
0000
1000
0100
0010
0000
1000
0100
0011
0000
1000
0100
0010
0000
0001
,
0010
1100
0000
0001
0010
0100
0000
0001
0010
1100
0000
0001
0010
0100
0000
0001
,
0100
1001
0000
0001
0100
1000
0000
0001
0100
1001
0000
0001
0100
1000
0000
0010
,
0001
1010
0000
0010
0001
1000
0000
0010
0001
1010
0000
0010
0001
1000
0000
0010
,
1000
0110
0000
0010
1000
0100
0000
0010
1000
0110
0000
0010
1000
0100
0000
0001
,
0010
0101
0000
0001
0010
0100
0000
0001
0010
0101
0000
0001
0010
0100
0000
1000
,
0100
1010
0000
1000
0100
0010
0000
1000
0100
1010
0000
1000
0100
1011
0100
0010
,
0100
1011
0100
0010
1000
0111
1000
0010
0100
0011
1000
0111
1000
0111
0000
0000
,
0000
0020
0000
0000
0000
0000
0000
0030
0000
0000
0000
0000
0000
0000
0000
0000
,
0000
1011
0100
0010
1000
0101
0010
0100
0010
1100
0001
0010
0100
1001
0100
1000
,
0010
0101
0010
0100
1000
0011
0100
0010
0100
1001
0010
0001
0100
0011
1000
0100
,
0010
0101
0010
0001
1000
0101
0010
0001
1000
0110
0001
0010
0100
0011
0100
1000
,
0001
1010
0100
1000
0001
0110
1000
0001
0010
1001
0100
0010
0001
1100
0010
0100
,
0010
1101
0010
0001
0100
1001
0010
0001
0100
0011
1000
0100
0010
1001
0100
1000
,
0010
0101
0010
0001
1000
0110
0001
0010
0100
1001
0010
0001
0010
0101
1000
0100
,
0010
1100
0001
0010
0100
1010
0100
1000
0001
1100
0010
0001
0100
1010
0100
0010
,
0001
0110
1000
0100
1000
0101
0010
0001
0010
1100
0010
1000
0100
0011
1000
0100
,
0010
1101
0010
1000
0001
1010
0001
0010
0100
0011
1000
0100
1000
0110
0001
0010
,
0001
1010
0100
0010
0100
0011
1000
0100
0010
0101
1000
0100
0010
1001
0100
1000
,
0010
1100
0001
0010
1000
0110
0001
0100
1000
0011
0100
0010
1000
0101
0010
1000
,
0100
0011
1000
0100
0010
1001
0100
0010
1000
0101
0010
0100
1000
0011
0100
0001
,
1000
0111
1000
0100
0001
1010
0100
0001
0100
0011
1000
0010
1000
0101
0010
0100
,
0010
1100
0001
0010
0100
1010
0100
0010
0001
1100
0010
0001
0100
1001
0010
1000
,
0100
1010
0100
0010
0001
0110
1000
0001
0010
1100
0001
0010
0100
1001
0010
0100
,
0010
1100
0010
1001
0100
0011
1000
0110
0001
1010
0100
1001
0010
0101
0010
1001
,
0010
2100
0000
0010
0000
0001
0000
0100
0010
0000
0010
0001
0000
0010
0000
0100
,
0000
3020
0000
0100
0000
1000
0000
0100
0001
0000
1000
0100
0000
1000
0000
0100
,
0000
0032
0000
0010
0000
0100
0000
1000
0010
0000
0100
0010
0000
1000
0000
0010
,
0000
0203
0000
0010
0000
0001
0000
0010
1000
0000
0010
0001
0000
1000
0000
0010
,
0000
1302
0000
0000
0000
1100
0000
0000
0000
1023
0000
0000
0000
1001
0000
0000
,
0000
1230
0000
0000
0000
0011
0000
0000
0000
2310
0000
0000
0000
0110
0000
0000
,
0000
3201
0000
0000
0000
0011
0000
0000
0000
1320
0000
0000
0000
1001
0000
0000
,
0000
1132
0000
0000
0000
1110
0000
0000
0000
1123
0000
0000
0000
1101
0000
1001
,
0000
1131
0000
0000
0000
0020
0000
0000
0000
0000
0000
0030
0000
0000
0000
0000
,
0000
0000
0000
0000
0000
0111
1000
0100
0010
0101
0010
0001
0100
1001
0100
0010
,
1000
0011
0100
0010
1000
0101
0010
0001
1000
0110
0001
0010
0100
1001
0010
0100
,
0010
1100
0001
0010
0001
0110
1000
0100
0010
0101
0010
1000
0010
1100
0001
0010
,
0100
1010
0001
1000
0100
0011
1000
0100
0010
1001
0010
0100
0010
1100
0001
0010
,
1000
0101
0010
0001
0100
1011
0100
0010
0100
1001
0010
0001
0010
0101
0010
1000
,
0001
1100
0010
1000
0100
1001
0010
0001
0100
1010
0001
0010
0001
1100
0001
0010
,
0100
1010
0001
0100
0010
1001
0010
0100
0010
0101
1000
0010
0001
1100
0010
0100
,
1000
0110
0001
1000
0010
0101
1010
0101
1010
0101
1010
0101
1010
0101
1010
0101
,
1010
0101
1010
0101
1010
0111
1000
0100
0010
0101
0010
0001
1000
0011
0100
0010
,
0100
1001
0010
0100
0001
1010
0001
0010
1000
0101
0010
1000
0100
1010
0100
0001
,
1000
0110
0001
0010
0100
1001
0010
0001
1000
0101
0010
1000
0100
0011
0100
0001
,
1000
0110
0001
0010
0001
1100
0010
0001
0010
0101
1000
0100
0010
1100
0001
0010
,
0100
1001
0010
0001
0100
1011
0100
0010
0001
1110
0001
0010
0100
1011
0100
1000
,
0010
1101
0010
1000
0001
1110
0001
1000
0100
1011
0100
0010
0001
1110
0001
1000
,
0010
1101
0010
0001
0100
1011
0100
1000
0001
1110
0001
0100
0001
1110
0001
0100
,
1000
0111
1000
0010
0100
1011
0100
1010
0100
1011
0100
1010
0100
1011
0100
1010
,
0100
1011
0100
1010
0100
2022
0000
0000
0000
0000
0000
0000
0000
0000
0000
0000
,
0000
0000
0000
0000
0000
3033
0000
0000
0000
0000
0000
0000
0000
0000
0000
0000
;
